->>>>>>{punkty}<----------

Oglądaj ONLINE w HD!


Głosy z głębin 3D - Ghosts of the Abyss 3D (2003) PLSUBBED.mHD.1080p.Over-Under.BluRay.x264.AC3-LEON345 / Napisy PL

Dodał: HDManiac | Kateogoria: Filmy 3D » OU (Over Under) | Wyświetleń: 913 | 27-02-2013, 14:19
Twórca tego niezwykłego filmu, zdobywca Oskara, reżyser i scenarzysta, James Cameron, powraca do miejsca swojej największej inspiracji do zatopionego wraku legendarnego statku RMS Titanic. Cameron, jego przyjaciel Bill Paxton oraz grupa specjalistów morskich i historyków wyruszają w podróż do podwodnego grobowca blisko 1500 osób, które zginęły niemal wiek temu. Dzięki najnowocześniejszemu sprzętowi, przygotowanemu specjalnie na tę okazję, zespół Camerona bada wnętrze statku i jego otoczenie z niespotykaną wcześniej dokładnością. Nowoczesna technologia IMAX 3D pozwoli widzom odbyć tę podróż tak, jakby sami należeli do załogi łodzi podwodnej, przebywającej głęboko pod powierzchnią oceanu i osobiście myszkowali w najbardziej niedostępnych zakamarkach statku - widma. Filmując w formacie IMAX 3D, Cameron i jego ekipa wydobywają z mroku niezwykłe widoki oraz przedmioty, które umknęły uwadze wcześniejszych ekspedycji i spoczywały tu w zapomnieniu przez ponad dziewięćdziesiąt lat. Statek potraktowany jest jako furtka do historii. Im więcej odkrywa reżyser, tym bardziej intrygujący okazuje się ten legendarny wrak.

Tagi: 2003, napisy, dokumentalny, 3d

DANE TECHNICZNE:

Napisy wtopione w film

General

Format : Matroska
Format version : Version 2
File size : 4.00 GiB
Duration : 1h 0mn
Overall bit rate : 9 429 Kbps
Movie name : Ghosts_of_the_Abyss_3D(Leon 345).Title0.BlurayRip
Encoded date : UTC 2013-02-24 22:14:22
Writing application : mkvmerge v5.7.0 ('The Whirlwind') built on Jul 8 2012 20:08:51
Writing library : libebml v1.2.3 + libmatroska v1.3.0

Video
ID : 1
Format : AVC
Format/Info : Advanced Video Codec
Format profile : High@L4.1
Format settings, CABAC : Yes
Format settings, ReFrames : 2 frames
Codec ID : V_MPEG4/ISO/AVC
Duration : 1h 0mn
Bit rate : 8 601 Kbps
Width : 1 920 pixels
Height : 1 080 pixels
Display aspect ratio : 16:9
Frame rate mode : Constant
Frame rate : 23.976 fps
Color space : YUV
Chroma subsampling : 4:2:0
Bit depth : 8 bits
Scan type : Progressive
Bits/(Pixel*Frame) : 0.173
Stream size : 3.65 GiB (91%)
Title : Rip by Leon 345 subbed PL
Writing library : x264 core
Default : Yes
Forced : No
Color primaries : BT.709
Transfer characteristics : BT.709
Matrix coefficients : BT.709

Audio
ID : 2
Format : AC-3
Format/Info : Audio Coding 3
Mode extension : CM (complete main)
Format settings, Endianness : Big
Codec ID : A_AC3
Duration : 1h 0mn
Bit rate mode : Constant
Bit rate : 640 Kbps
Channel(s) : 6 channels
Channel positions : Front: L C R, Side: L R, LFE
Sampling rate : 48.0 KHz
Bit depth : 16 bits
Compression mode : Lossy
Stream size : 278 MiB (7%)
Title : AC3 5.1 Orginal
Language : English
Default : Yes
Forced : No

Menu
00:00:00.000 : en:(01)00:00:00:000
00:03:26.872 : en:(02)00:03:26:872
00:07:17.937 : en:(03)00:07:17:937
00:13:04.908 : en:(04)00:13:04:908
00:18:18.847 : en:(05)00:18:18:847
00:22:47.615 : en:(06)00:22:47:615
00:35:30.253 : en:(07)00:35:30:253
00:38:21.047 : en:(08)00:38:21:047
00:44:25.161 : en:(09)00:44:25:161
00:50:29.818 : en:(10)00:50:29:818
00:54:13.583 : en:(11)00:54:13:583
00:59:04.081 : en:(12)00:59:04:081

Source [thx]:
A/V - IMAX - Ghosts of the Abyss (2003) Blu-ray 3D 1080p AVC DTS-HD 5.1-HDChina


POBIERZ / DOWNLOAD:

Aby zobaczyć ukryty tekst musisz być zalogowany, jeżeli nie masz konta zarejestruj się!


Informacja
Info Użytkownicy z rangą Gość nie mogą dodawać komentarzy.



Głosowanie


Wolna Kategoria


opis kategorii

opis II




2011-2013 HardSite.pl, All rights reserved.

Korzystanie z serwisu oznacza akceptacje regulaminu.

HardSite.pl - hardsite, hardsite.pl, filmy 3d, filmy hd, filmy blu-ray, filmy 3d download, blu-ray download, hd download, filmy lektor, filmy napisy, brrip, dvdrip,

Uwaga! ?aden z plików nie znajduje się na serwerze. Administracja nie ponosi odpowiedzialności za materiały publikowane przez użytkowników. Serwis udostępnia jedynie informacje na
temat plików oraz odnośniki do serwisów na których znajdują się materiały (turbobit.net, egofiles.com itp.). Wszelkie roszczenia prawne należy kierować do serwisów zamieszczających
materiały. Design wykonany tylko dla HardSite.pl, kopiowanie zabronione.




Fatal error: Call to a member function close() on a non-object in /home/ookqjqfb/domains/hardsite.pl/public_html/index.php on line 319