->>>>>>{punkty}<----------

Oglądaj ONLINE w HD!


Najczarniejsza Godzina 3D / The Darkest Hour (2011) DUAL.mini-HD.1080p.Over-Under.BluRay.x264.AC3-LEON345 / Lektor i Napisy PL

Dodał: HDManiac | Kateogoria: Filmy 3D » OU (Over Under) | Wyświetleń: 782 | 25-02-2013, 15:24
W tym trzymającym w napięciu, katastroficznym thrillerze science fiction, grupa młodych Amerykanów przebywających w Moskwie prowadzi desperacką walkę o przetrwanie w obliczu apokaliptycznej inwazji przedstawicieli obcej cywilizacji dysponujących niszczycielską siłą o nieznanym pochodzeniu i ogromnej mocy. Składający się z czystej energii, niewidzialni obcy bezlitośnie zabijają ludzi paląc ich na popiół za każdym dotknięciem. Niewielka grupka ocalałych, uzbrojonych jedynie w swoją odwagę i pomysłowość łączy siły z ekscentrycznym rosyjskim naukowcem, który może być w posiadaniu klucza do zatrzymania najeźdźców. Jednak cenny czas ucieka a nadzieja słabnie. Mogą mieć tylko jedną szansę na uratowanie siebie... i całej planety.

Tagi: 2011, lektor, napisy, horror, akcja, sci-fi, 3d

DANE TECHNICZNE:

General
Format : Matroska
File size : 3.67 GiB
Duration : 1h 28mn
Overall bit rate : 5 904 Kbps
Movie name : DARKEST_HOUR.Title1.Bluray3DRip
Encoded date : UTC 2012-04-25 16:00:17
Writing application : mkvmerge v5.2.1 ('A Far Off Place') built on Jan 2 2012 23:21:10
Writing library : libebml v1.2.3 + libmatroska v1.3.0

Źródło:The.Darkest.Hour.2011.3D.BluRay.1080p.AVC.DTS-HD.MA5.1-CHDBits

Video
ID : 1
Format : AVC
Format/Info : Advanced Video Codec
Format profile : High@L5.1
Format settings, CABAC : Yes
Format settings, ReFrames : 2 frames
Muxing mode : Container profile=Unknown@5.1
Codec ID : V_MPEG4/ISO/AVC
Duration : 1h 28mn
Bit rate : 4 891 Kbps
Width : 1 920 pixels
Height : 1 080 pixels
Display aspect ratio : 16:9
Frame rate : 23.976 fps
Resolution : 8 bits
Colorimetry : 4:2:0
Scan type : Progressive
Bits/(Pixel*Frame) : 0.098
Stream size : 3.04 GiB (83%)
Title : Darkest Hour(Leon 345)dual audio
Writing library : x264 core
Color primaries : BT.709-5, BT.1361, IEC 61966-2-4, SMPTE RP177
Transfer characteristics : BT.709-5, BT.1361
Matrix coefficients : BT.709-5, BT.1361, IEC 61966-2-4 709, SMPTE RP177

Audio #1
ID : 2
Format : AC-3
Format/Info : Audio Coding 3
Codec ID : A_AC3
Duration : 1h 28mn
Bit rate mode : Constant
Bit rate : 448 Kbps
Channel(s) : 6 channels
Channel positions : Front: L C R, Side: L R, LFE
Sampling rate : 48.0 KHz
Stream size : 285 MiB (8%)
Language : Polish

Audio #2
ID : 3
Format : AC-3
Format/Info : Audio Coding 3
Codec ID : A_AC3
Duration : 1h 28mn
Bit rate mode : Constant
Bit rate : 448 Kbps
Channel(s) : 6 channels
Channel positions : Front: L C R, Side: L R, LFE
Sampling rate : 48.0 KHz
Stream size : 285 MiB (8%)
Language : English


POBIERZ / DOWNLOAD:

Aby zobaczyć ukryty tekst musisz być zalogowany, jeżeli nie masz konta zarejestruj się!


Informacja
Info Użytkownicy z rangą Gość nie mogą dodawać komentarzy.



Głosowanie


Wolna Kategoria


opis kategorii

opis II




2011-2013 HardSite.pl, All rights reserved.

Korzystanie z serwisu oznacza akceptacje regulaminu.

HardSite.pl - hardsite, hardsite.pl, filmy 3d, filmy hd, filmy blu-ray, filmy 3d download, blu-ray download, hd download, filmy lektor, filmy napisy, brrip, dvdrip,

Uwaga! ?aden z plików nie znajduje się na serwerze. Administracja nie ponosi odpowiedzialności za materiały publikowane przez użytkowników. Serwis udostępnia jedynie informacje na
temat plików oraz odnośniki do serwisów na których znajdują się materiały (turbobit.net, egofiles.com itp.). Wszelkie roszczenia prawne należy kierować do serwisów zamieszczających
materiały. Design wykonany tylko dla HardSite.pl, kopiowanie zabronione.




Fatal error: Call to a member function close() on a non-object in /home/ookqjqfb/domains/hardsite.pl/public_html/index.php on line 319