->>>>>>{punkty}<----------

Oglądaj ONLINE w HD!


Życie Pi 3D / Life Of Pi 3D (2012) PLDUB.BluRay.HSBS.1080p.AC3.x264-SLiSU / Dubbing PL

Dodał: HDManiac | Kateogoria: Filmy 3D » SBS (Side by Side) | Wyświetleń: 1530 | 2-03-2013, 09:50
Pi Patel, syn właściciela zoo, mieszka wraz z rodziną w Indiach. Rodzina Pi postanawia przenieść się do Kanady. W trakcie podróży statek tonie. Pi znajduje się w niewielkiej szalupie na środku Oceanu Spokojnego w towarzystwie hieny, orangutana, zebry i tygrysa bengalskiego. Rozpoczyna się walka o przetrwanie.

Tagi: 2012, dubbing, dramat, przygodowy, 3d

DANE TECHNICZNE:

Format : Matroska
Format version : Version 2
File size : 11.3 GiB
Duration : 2h 6mn
Overall bit rate : 12.7 Mbps
Movie name : LIFE_OF_PI.Title600.Bluray3DRip
Encoded date : UTC 2013-03-01 18:49:04
Writing application : mkvmerge v5.0.1 ('Es ist Sommer') built on Oct 13 2011 06:24:21
Writing library : libebml v1.2.2 + libmatroska v1.3.0

Video
ID : 1
Format : AVC
Format/Info : Advanced Video Codec
Format profile : High@L4.1
Format settings, CABAC : Yes
Format settings, ReFrames : 3 frames
Muxing mode : Header stripping
Codec ID : V_MPEG4/ISO/AVC
Duration : 2h 6mn
Bit rate : 12.0 Mbps
Width : 1 920 pixels
Height : 1 036 pixels
Display aspect ratio : 1.85:1
Frame rate mode : Constant
Frame rate : 23.976 fps
Color space : YUV
Chroma subsampling : 4:2:0
Bit depth : 8 bits
Scan type : Progressive
Bits/(Pixel*Frame) : 0.252
Stream size : 10.7 GiB (94%)
Writing library : x264 core
Default : Yes
Forced : No
Color primaries : BT.709
Transfer characteristics : BT.709
Matrix coefficients : BT.709

Audio
ID : 2
Format : AC-3
Format/Info : Audio Coding 3
Mode extension : CM (complete main)
Format settings, Endianness : Big
Muxing mode : Header stripping
Codec ID : A_AC3
Duration : 2h 6mn
Bit rate mode : Constant
Bit rate : 448 Kbps
Channel(s) : 6 channels
Channel positions : Front: L C R, Side: L R, LFE
Sampling rate : 48.0 KHz
Bit depth : 16 bits
Compression mode : Lossy
Stream size : 407 MiB (4%)
Language : Polish
Default : Yes
Forced : No


SOURCE: CHD3D | PHD [THX]


POBIERZ / DOWNLOAD:

Aby zobaczyć ukryty tekst musisz być zalogowany, jeżeli nie masz konta zarejestruj się!


#1 Dodał: labugabu Jest OffLine (3 Marzec 2013 11:00)
wolałbym to w .torrencie - szkoda, wolne łącze mam
#2 Dodał: ker100 Jest OffLine (17 Marzec 2013 16:53)
linki padły
Informacja
Info Użytkownicy z rangą Gość nie mogą dodawać komentarzy.



Głosowanie


Wolna Kategoria


opis kategorii

opis II




2011-2013 HardSite.pl, All rights reserved.

Korzystanie z serwisu oznacza akceptacje regulaminu.

HardSite.pl - hardsite, hardsite.pl, filmy 3d, filmy hd, filmy blu-ray, filmy 3d download, blu-ray download, hd download, filmy lektor, filmy napisy, brrip, dvdrip,

Uwaga! ?aden z plików nie znajduje się na serwerze. Administracja nie ponosi odpowiedzialności za materiały publikowane przez użytkowników. Serwis udostępnia jedynie informacje na
temat plików oraz odnośniki do serwisów na których znajdują się materiały (turbobit.net, egofiles.com itp.). Wszelkie roszczenia prawne należy kierować do serwisów zamieszczających
materiały. Design wykonany tylko dla HardSite.pl, kopiowanie zabronione.




Fatal error: Call to a member function close() on a non-object in /home/ookqjqfb/domains/hardsite.pl/public_html/index.php on line 319